Daana Paani (2018) 1080p - WEB-HD - AVC - AAC-Rhythm Boyz

Daana Paani (2018) 1080p - WEB-HD - AVC - AAC-Rhythm Boyz





Format                      : MPEG-4
Format profile              : Base Media
Codec ID                    : isom (isom/iso2/avc1/mp41)
File size                   : 799 MiB
Duration                    : 1 h 45 min
Overall bit rate            : 1 059 kb/s
Writing application         : Lavf58.9.100

Video
ID                          : 1
Format                      : AVC
Format/Info                 : Advanced Video Codec
Format profile              : [email protected]
Format settings, CABAC      : Yes
Format settings, RefFrames  : 3 frames
Codec ID                    : avc1
Codec ID/Info               : Advanced Video Coding
Duration                    : 1 h 45 min
Bit rate                    : 928 kb/s
Width                       : 1 920 pixels
Height                      : 1 080 pixels
Display aspect ratio        : 16:9
Frame rate mode             : Constant
Frame rate                  : 24.000 FPS
Color space                 : YUV
Chroma subsampling          : 4:2:0
Bit depth                   : 8 bits
Scan type                   : Progressive
Bits/(Pixel*Frame)          : 0.019
Stream size                 : 700 MiB (88%)
Color range                 : Limited
Color primaries             : BT.709
Transfer characteristics    : BT.709
Matrix coefficients         : BT.709

Audio
ID                          : 2
Format                      : AAC
Format/Info                 : Advanced Audio Codec
Format profile              : LC
Codec ID                    : 40
Duration                    : 1 h 45 min
Bit rate mode               : Constant
Bit rate                    : 126 kb/s
Channel(s)                  : 2 channels
Channel positions           : Front: L R
Sampling rate               : 44.1 kHz
Frame rate                  : 43.066 FPS (1024 SPF)
Compression mode            : Lossy
Stream size                 : 94.8 MiB (12%)
Language                    : English
Default                     : Yes
Alternate group             : 1




SINGLE DIRECT FAST LINKS

http://www.heroupload.us/4e632ff7fbc291d1/Daana.Paani.2018.Punjabi.1080p.WEB-HD.AVC.AAC-Rhythm.Boyz.mp4



http://filefloater.com/2AW8/Daana.Paani.2018.Punjabi.1080p.WEB-HD.AVC.AAC-Rhythm.Boyz.mp4





Buy Premium From My Links & Support Me
шаблоны для dle 11.2