Power Unlimited 2 (2018) 720p - HDRip - x264 [Dual Audio][Hindi-Cam+Telugu] - BHD

Power Unlimited 2 (2018) 720p - HDRip - x264 [Dual Audio][Hindi-Cam+Telugu] - BHD





Format                      : Matroska
Format version              : Version 2
File size                   : 1.31 GiB
Duration                    : 1 h 57 min
Overall bit rate            : 1 601 kb/s
Encoded date                : UTC 2018-09-28 15:53:15
Writing application         : mkvmerge v7.0.0 ('Where We Going') 32bit built on Jun  9 2014 15:08:34
Writing library             : libebml v1.3.0 + libmatroska v1.4.1

Video
ID                          : 1
Format                      : AVC
Format/Info                 : Advanced Video Codec
Format profile              : [email protected]
Format settings, CABAC      : Yes
Format settings, RefFrames  : 4 frames
Codec ID                    : V_MPEG4/ISO/AVC
Duration                    : 1 h 57 min
Bit rate                    : 1 525 kb/s
Width                       : 720 pixels
Height                      : 288 pixels
Display aspect ratio        : 2.35:1
Frame rate mode             : Constant
Frame rate                  : 25.000 FPS
Color space                 : YUV
Chroma subsampling          : 4:2:0
Bit depth                   : 8 bits
Scan type                   : Progressive
Bits/(Pixel*Frame)          : 0.294
Stream size                 : 1.25 GiB (96%)
Writing library             : x264 core 142 r2431 ac76440
Encoding settings           : cabac=1 / ref=3 / deblock=1:0:0 / analyse=0x3:0x113 / me=hex / subme=7 / psy=1 / psy_rd=1.00:0.00 / mixed_ref=1 / me_range=16 / chroma_me=1 / trellis=1 / 8x8dct=1 / cqm=0 / deadzone=21,11 / fast_pskip=1 / chroma_qp_offset=-2 / threads=1 / lookahead_threads=1 / sliced_threads=0 / nr=0 / decimate=1 / interlaced=0 / bluray_compat=0 / constrained_intra=0 / bframes=3 / b_pyramid=2 / b_adapt=1 / b_bias=0 / direct=1 / weightb=1 / open_gop=0 / weightp=2 / keyint=250 / keyint_min=25 / scenecut=40 / intra_refresh=0 / rc_lookahead=40 / rc=abr / mbtree=1 / bitrate=1525 / ratetol=1.0 / qcomp=0.60 / qpmin=0 / qpmax=69 / qpstep=4 / vbv_maxrate=62500 / vbv_bufsize=78125 / nal_hrd=none / filler=0 / ip_ratio=1.40 / aq=1:1.00
Default                     : Yes
Forced                      : No

Audio
ID                          : 2
Format                      : AAC
Format/Info                 : Advanced Audio Codec
Format profile              : HE-AACv2 / HE-AAC / LC
Codec ID                    : A_AAC
Duration                    : 1 h 57 min
Bit rate                    : 69.7 kb/s
Channel(s)                  : 2 channels / 1 channel / 1 channel
Channel positions           : Front: L R / Front: C / Front: C
Sampling rate               : 48.0 kHz / 48.0 kHz / 24.0 kHz
Frame rate                  : 23.438 FPS (1024 SPF)
Compression mode            : Lossy
Delay relative to video     : 11 ms
Stream size                 : 58.5 MiB (4%)
Language                    : Hindi
Default                     : Yes
Forced                      : No










SINGLE DIRECT FAST LINKS
http://www.heroupload.us/a236d30d837b6b56/Power.Unlimited.2.2018.Dual.Audio.720p.HDRip.x264.Hindi.Cam+Telugu.mkv


http://filefloater.com/2AUn/Power.Unlimited.2.2018.Dual.Audio.720p.HDRip.x264.Hindi.Cam+Telugu.mkv


Buy Premium From My Links & Support Me
шаблоны для dle 11.2